Skip to main content

Reason For Leaving Live at Annex on 2003-05-09


Topics Live concert


Sea Of Loving, Elvy, Use Me, Truf, Hustler, Doors With Widgets, Canary In a Coal Mine, Shame, Butterknife, Bladada De Chingdada, Wetter, Who's Got The Herb?


Collection ReasonForLeaving
Band/Artist Reason For Leaving
Venue Annex
Location Madison WI

Source KM140's > MV100 > SBM-1 (Oade Mod) > M1 > DAT
Lineage DAT > FLAC
Taped by TAS
Transferred by TAS

Notes

Recording info:

Mics: Neumann KM-140 (Cardioid Condenser ORTF pair, shock-mounted on 10' stand FOB 1' left of DFC)

Mic Preamp: Beyer MV-100 (2-channel mic power + 20dB gain) >

Analog to Digital Converter: Sony SBM-1 (Oade mod) >

Tape deck: Sony PCM-M1

Sampling Rate: 48khz

-=-=-=-=-=-=-=-=-=-=-=-=-=-=-=-=-=-=-=-=-=-=-=-=-=-=-=-=-=-=-=-=-=-=-=-=-=-=-=-=-=-=
Transcription info:

TCD-D10ProII(oade mod) DAT> SPDIF> Audiomedia III PCI card> Power Macintosh 8500/180>

Protools4.1.1 Sample Rate Conversion- "BEST" mode> 44.1KHz .WAV files

(un-resampled 48KHz file also archived using SHN compression)

.WAV's> Shorten 1.1a3 >.SHN's

-=-=-=-=-=-=-=-=-=-=-=-=-=-=-=-=-=-=-=-=-=-=-=-=-=-=-=-=-=-=-=-=-=-=-=-=-=-=-=-=-=-=
November 2005:

SHN > xACT v1.5b3 > FLAC (tracks aligned to 1/75 second intervals and level 8 flac compression)

shntool result
length expanded size cdr WAVE problems filename
5:25.15 57365324 --- -- ---xx rfl2003-05-09t01.flac
4:23.00 46393244 --- -- ---xx rfl2003-05-09t02.flac
4:27.68 47258780 --- -- ---xx rfl2003-05-09t03.flac
9:18.19 98475932 --- -- ---xx rfl2003-05-09t04.flac
4:39.25 49274444 --- -- ---xx rfl2003-05-09t05.flac
7:27.24 78907292 --- -- ---xx rfl2003-05-09t06.flac
3:40.50 38925644 --- -- ---xx rfl2003-05-09t07.flac
5:41.06 60166556 --- -- ---xx rfl2003-05-09t08.flac
5:09.06 54521756 --- -- ---xx rfl2003-05-09t09.flac
11:36.62 122920268 --- -- ---xx rfl2003-05-09t10.flac
5:23.41 57073676 --- -- ---xx rfl2003-05-09t11.flac
11:58.21 126704636 --- -- ---xx rfl2003-05-09t12.flac
79:10.37 837987552 B (totals for 12 files, 0.5708 overall compression ratio)
-=-=-=-=-=-=-=-=-=-=-=-=-=-=-=-=-=-=-=-=-=-=-=-=-=-=-=-=-=-=-=-=-=-=-=-=-=-=-=-=-=-=
Soundscape Preservation Society Founded 1991
http://www.iamtypingwithonefinger.com/SPS.html
-=-=-=-=-=-=-=-=-=-=-=-=-=-=-=-=-=-=-=-=-=-=-=-=-=-=-=-=-=-=-=-=-=-=-=-=-=-=-=-=-=-=

Reviews

There are no reviews yet. Be the first one to write a review.
PEOPLE ALSO FOUND
Reason For Leaving
by Reason For Leaving
3,080
0
2
( 2 reviews )
Source: Neumann KM140's > Beyer MV100 > Sony SBM-1 (Oade mod) > Sony TCD-D100 DAT @48KHz
Reason For Leaving
by Reason For Leaving
792
0
0
Source: KM140 Matrix > DAT
Reason For Leaving
by Reason For Leaving
13,719
0
1
( 1 reviews )
Source: Neumann KM140's (approx ORTF, FOB) > Beyer MV100 (+20dB gain) > Sony SBM-1 (Oade mod) > 48KHz S/Pdif > Sony PCM-M1
Reason For Leaving
by Reason For Leaving
744
1
0
Source: Neumann KM140's > Beyer MV100 > Sony D-10 ProII (Oade mod)
Reason For Leaving
by Reason For Leaving
1,924
1
0
Source: Neumann KM140 > MV100 > SBM > DAT
Reason For Leaving
by Reason For Leaving
235
1
0
Source: SBD + Audience Matrix
Reason For Leaving
by Reason For Leaving
1,902
1
1
( 1 reviews )
Source: Allen & Heath GL2200 Control Room outputs (RCA) > SBM-1 (Oade mod) > TCD-D100> DAT @48KHz + Neumann KM140's > Beyer MV100> TCD-D10ProII (Oade mod)
Reason For Leaving
by Reason For Leaving
2,194
1
0
Source: Pre-FM > Fostex D-10 Master DAT recorder
Reason For Leaving
by Reason For Leaving
473
1
0
Source: Zoom H2 Handy Recorder (internal mics at 90 degrees) > WAV @16-bit 48KHz
Reason For Leaving
by Reason For Leaving
1,330
1
0
Source: Neumann KM140's > Beyer MV100 > SBM-1 (Oade mod) > TCD-D100